#TITLE:Baby Baby!!;
#SUBTITLE:UmJammerLammy;
#ARTIST:松浦雅也;
#TITLETRANSLIT:;
#SUBTITLETRANSLIT:;
#ARTISTTRANSLIT:Masaya Matsuura;
#CREDIT:;
#BANNER:Baby Baby!!.jpg;
#BACKGROUND:Baby Baby!!-bg.jpg;
#LYRICSPATH:;
#CDTITLE:vospi.png;
#MUSIC:Baby Baby!!.mp3;
#OFFSET:-0.598;
#SAMPLESTART:3.456;
#SAMPLELENGTH:14.700;
#SELECTABLE:YES;
#BPMS:0.000=190.000;
#STOPS:;
#BGCHANGES:;
// cache tags:
#FIRSTBEAT:0.000;
#LASTBEAT:428.000;
#SONGFILENAME:Songs/Music V.I.P ^_^/Baby Baby!! (Vospi)/Baby Baby!!.sm;
#HASMUSIC:1;
#HASBANNER:1;
#MUSICLENGTH:145.580;
// end cache tags

//---------------dance-single - ----------------
#NOTES:
     dance-single:
     :
     Hard:
     11:
     1.000,1.000,1.000,1.000,0.161,749.000,294.000,273.000,0.000,0.000:
1010
0010
0010
0010
0010
0001
0010
0100
,
1010
1000
1000
1000
1000
0010
0100
0001
,
0011
0001
0001
0001
0001
1000
0010
0100
,
0101
0001
0001
0001
0001
0011
0011
0011
,
0100
0100
0011
0110
0100
0100
0011
0100
,
0100
0100
0011
0110
0100
0010
1100
0100
,
0020
0030
0020
0030
0102
0003
1020
0030
0020
0030
0020
0030
1002
0003
0020
0030
,
0020
0030
0020
0030
1002
0003
0120
0030
0020
0030
1000
0100
0010
0000
0110
0000
,
0100
0100
0011
1100
0100
0100
0110
0100
,
0100
0100
0011
1100
0000
0100
0011
0100
,
0020
0030
0020
0030
0102
0003
1020
0030
0020
0030
0020
0030
0002
0003
0020
0030
,
0020
0030
0020
0030
0002
0003
0200
0000
0020
0330
0101
0000
0101
0000
0101
0000
,
1100
1100
1100
1100
1100
1100
1100
0101
,
0101
0101
0101
0101
0101
0101
0110
0110
,
0200
0300
0200
0300
0200
0300
0022
0033
0200
0300
0020
0030
2000
3000
0200
0000
,
0020
0330
2200
3300
0220
0330
0022
0000
0000
0000
0000
0033
1100
0000
0000
0000
,
1010
1010
1010
1010
1010
1010
1010
1001
,
1001
1001
1001
1001
1001
1001
1010
1010
,
0220
0330
0200
0300
0200
0300
0002
0003
0200
0300
0020
0030
2000
3000
0200
0000
,
0020
0330
2200
3300
0220
0330
0022
0000
0000
0033
0100
1000
0011
0000
0010
0000
,
0110
0010
0010
0010
0010
0001
0010
0100
,
1010
1000
1000
1000
1000
0001
0100
0010
,
1001
1001
1001
1001
1001
0110
1010
1100
,
0020
0000
0002
0000
0000
0030
0010
0013
,
1100
0000
0110
0110
1000
0000
0011
0000
,
0100
0000
1010
1010
0001
0000
1100
0200
,
0300
0000
0200
0300
2000
3000
0020
0000
0000
0030
2000
3000
0000
0000
0200
0300
,
0000
0000
0200
0300
0020
0030
2000
0000
0000
3000
0010
0100
0001
0000
0001
0000
,
1000
0000
1001
0001
0100
0000
0011
0000
,
1000
0000
0011
0010
0100
0100
1010
0020
,
0030
0000
0020
0030
2000
3000
0200
0000
0000
0300
2000
3000
0000
0000
0002
0000
,
0000
0000
0003
0000
0002
0000
0003
0000
0200
0000
0300
0000
0020
0000
0030
0000
0000
0000
0000
0000
0220
0330
0000
0000
0022
0000
0000
0000
0000
0000
0033
0000
,
0100
0100
0011
0110
0000
0010
0011
0000
,
0020
0030
0020
0030
0102
0003
0120
0000
0000
0030
0002
0003
0120
0000
0000
0030
,
0010
0010
0011
0110
0000
0010
0110
0000
,
0200
0300
0200
0300
0020
0030
0200
0000
0000
0300
0001
0010
0001
0000
0001
0000
,
0010
0100
0101
0010
0100
0100
0011
0000
,
0022
0033
0220
0330
2200
3300
0022
0033
0220
0330
2200
3300
0022
0033
0202
0303
,
0010
0010
0011
0100
0000
0010
0101
0000
,
0220
0330
0220
0330
0202
0303
0220
0000
0000
0330
1001
0000
1001
0000
1001
0000
,
1001
0010
0010
0010
0010
1001
1001
1001
,
1001
0000
0020
0030
0020
0030
0020
0030
0020
0030
1001
0000
1001
0000
1001
0000
,
1001
0100
0100
0010
0001
1001
1001
1001
,
1001
0000
0200
0300
0200
0300
0200
0300
0200
0300
1001
0000
1001
0000
1001
0000
,
1001
0001
0001
0001
0001
1001
1001
1001
,
1001
0000
0020
0030
0020
0030
0020
0030
0020
0030
1001
0000
1001
0000
1001
0000
,
1001
0010
0010
0010
0010
1001
1001
1001
,
1001
0000
0020
0030
0020
0030
0020
0030
0020
0030
0001
0010
0001
0000
0101
0000
,
1001
0000
0000
0000
,
1001
0000
0000
0000
,
1001
0001
0001
0001
0011
0101
1001
1010
,
2200
0000
0000
0000
0000
0000
0000
3300
,
0000
0001
1010
0100
0001
0010
1000
0001
,
0000
0000
0000
0000
0022
0000
0033
0000
0200
0000
0300
0000
2000
0000
3000
0000
0020
0000
0030
0000
0002
0003
0020
0030
0200
0300
0000
0000
0022
0033
0000
0000
,
0000
0010
1100
1000
0001
0010
0110
0001
,
0000
0000
0000
0000
0220
0000
0330
0000
0002
0003
0020
0030
0200
0300
0000
0000
0220
0330
0000
0000
0002
0003
0020
0030
0200
0300
0000
0000
0220
0330
0000
0000
,
0000
0100
0110
0100
0000
0100
0110
0200
,
0320
0030
0000
0000
0000
0000
0000
0000
0020
0000
0000
0000
0030
0000
0000
0000
0020
0000
0000
0000
0030
0000
0000
0000
0200
0000
0000
0000
0000
0000
0000
0000
0320
0030
0000
0000
0000
0000
0000
0000
0020
0000
0000
0000
0030
0000
0000
0000
0020
0000
0000
0000
0030
0000
0000
0000
0200
0000
0000
0000
0300
0000
0000
0000
,
0000
0100
0110
0010
0000
0100
0110
0020
,
0032
0003
0000
0000
0000
0000
0000
0000
0020
0000
0030
0000
0200
0000
0300
0000
0020
0000
0030
0000
0000
0000
0000
0000
0020
0000
0000
0000
0000
0000
0000
0000
0032
0000
0003
0000
0000
0000
0000
0000
0020
0000
0030
0000
0200
0000
0300
0000
0020
0000
0030
0000
0000
0000
0000
0000
0020
0000
0000
0000
0030
0000
0000
0000
,
0000
0000
0001
0000
0110
0000
0100
0000
0000
0000
1000
0000
0100
0000
0001
0010
,
0100
0010
0100
1000
0001
0010
0100
0010
0100
1000
0100
0010
0001
0000
0002
0000
,
0003
0000
0002
0003
0020
0030
2000
3000
0000
0000
0200
0300
2000
3000
0002
0023
,
0230
0320
0230
2300
3002
0023
0230
0320
0230
2300
3200
0320
0032
0000
0103
0000
,
0000
0000
0100
0000
0110
0000
0100
0000
0000
0000
0100
0000
1000
0000
0010
0100
,
1000
0100
1000
0100
0001
0100
0010
0100
1000
0100
0010
0100
0001
0000
0002
0000
,
0003
0000
0000
0000
0002
0003
0000
0000
0020
0000
0030
0000
0200
0000
0300
0000
0000
0000
0000
0000
0020
0000
0030
0000
0200
0000
0300
0000
0010
0000
1000
0000
,
0100
1000
0100
1000
0010
1000
0100
1000
0100
1000
0010
1000
0002
0003
0000
0000
,
1001
0000
0000
0000
,
1001
0000
0000
0000
,
1001
0001
0001
0001
0011
0101
1001
1010
,
2200
0000
0000
0000
0000
0000
0000
0000
0000
0000
0000
0300
0100
3000
1000
0000
,
0101
0010
0110
1000
0100
0011
0100
1010
,
0000
0100
0011
0100
0101
0000
1010
0000
,
0101
0010
0110
1000
0100
0011
0100
1010
,
0000
0100
0011
0100
0101
0000
1010
0000
,
0011
0100
0110
0001
0001
0110
1000
1100
,
0000
0100
1100
0010
0011
0000
0110
0000
,
0011
0100
0110
0001
0001
0110
1000
1100
,
0000
0100
1100
0010
0011
0000
0110
0000
,
0101
0001
1001
0220
0330
0010
0011
2200
,
3300
1000
0110
0100
0011
0010
0101
0001
,
0100
0100
0110
2020
3030
0100
0110
2002
,
3003
0000
0001
0010
0100
1000
0100
1000
0001
0010
0100
1000
0001
0010
0100
1000
,
0010
0010
0101
0110
0100
0100
1010
0010
,
0100
0100
0110
0101
0010
0010
1100
0100
,
0020
0030
0020
0030
0201
0300
0210
0300
0200
0300
0200
0300
1020
0030
0020
0030
,
0200
0300
0200
0300
0210
0300
0201
0300
0020
0030
0001
0010
0001
0000
0110
0000
,
0001
0001
1100
0101
0100
0100
0011
0001
,
0010
0100
1100
0101
0010
0100
1001
0010
,
0020
0030
0020
0030
2001
3000
2010
3000
2000
3000
2000
3000
0120
0030
0020
0030
,
2000
3000
2000
3000
2010
3000
2001
3000
0020
0030
1001
0000
1001
0000
1001
0000
,
0010
0010
0101
0110
0000
0100
0110
0101
,
0101
0101
0101
0101
0101
0101
0110
0110
,
2000
3000
2000
3000
0200
0300
2000
3000
2000
3000
0200
0300
0220
0330
0202
0000
,
0000
0303
0000
0000
0022
0033
0000
0000
0022
0033
0220
0000
0000
0330
0000
0000
,
0100
0100
0110
0100
0000
0100
0110
0011
,
0011
0011
0101
0101
0110
0110
1100
1100
,
0200
0300
0200
0300
0020
0030
2000
0000
0200
3300
0200
0300
0020
0030
0002
0000
,
0000
0000
0003
0000
0020
0030
2000
3000
0200
0300
1000
0100
0010
0000
1010
0000
,
0010
0010
0101
0101
0000
1000
0101
0101
,
0010
0010
0101
0101
0000
0010
0101
0101
,
0011
0000
0011
0101
1001
1010
1100
0202
,
0000
0000
0000
0000
0000
0000
0303
2000
,
0000
0000
0002
0000
,
0000
0000
0000
0000
,
3003
0000
0022
0000
,
0033
0000
0000
0000
;
